Set as Homepage|Bookmark
 

Thank you Download
Need helps Supports me

 
Advertise

Learning Guitar for Dummies

Learning Guitar for Dummies
Learning Guitar for Dummies
DVDRip | English | AVI | 576 x 432 | XviD ~1038 kbps | 29.970 fps
MP3 128 Kbps 48.0 KHz | 2 channels | 01:22:59 | 698 MB
Genre: eLearning Video / Guitar lesson


Have you always wanted to play guitar? Who wouldn't? Think of Jimi Hendrix wailing away on his Stratocaster. . . Chuck Berry duck-walking across the stage to "Johnny B. Goode". . .B.B. King making his "Lucille" cry the blues. No doubt about it, guitars are cool.
Guitar For Dummies 2nd Edition tells you everything a beginning or intermediate guitarist needs to know: from buying a guitar to tuning it, playing it, and caring for it, this book has it all, and you don't even need to know how to read music. Full of photo-illustrated exercises and songs you can play to practice the techniques discussed in each section, this step-by-step guide will take you through the basics and beyond before you can say "Eric Clapton." You'll learn how to:

- Match yourself with the guitar and equipment that fits your needs and budget
- Select the right accessories: amps, picks, pedals, capos, cases, and other goodies
- Pick and strum to produce a clean, clear, buzz-free tone
- Know whether you're really in tune
- Play melodies without reading music
- Perform basic guitar maintenance and repairs
- Build strength and dexterity while playing
- Play in different styles, including rock, blues, folk, jazz, and classical
- Make your guitar talk with bends and slides!



General
Complete name : Learning Guitar For Dummies.avi
Format : AVI
Format/Info : Audio Video Interleave
File size : 698 MiB
Duration : 1 h 22 min
Overall bit rate mode : Variable
Overall bit rate : 1 176 kb/s
Writing application : VirtualDubMod 1.5.10.1 (build 2439/release)
Writing library : VirtualDubMod build 2439/release

Video
ID : 0
Format : MPEG-4 Visual
Format profile : Advanced [email protected]
Format settings : BVOP2
Format settings, BVOP : 2
Format settings, QPel : No
Format settings, GMC : No warppoints
Format settings, Matrix : Default (H.263)
Muxing mode : Packed bitstream
Codec ID : XVID
Codec ID/Hint : XviD
Duration : 1 h 22 min
Bit rate : 1 038 kb/s
Width : 576 pixels
Height : 432 pixels
Display aspect ratio : 4:3
Frame rate : 29.970 (30000/1001) FPS
Color space : YUV
Chroma subsampling : 4:2:0
Bit depth : 8 bits
Scan type : Progressive
Compression mode : Lossy
Bits/(Pixel*Frame) : 0.139
Stream size : 616 MiB (88%)
Writing library : XviD 1.0.2 (UTC 2004-08-29)

Audio
ID : 1
Format : MPEG Audio
Format version : Version 1
Format profile : Layer 3
Format settings : Joint stereo
Codec ID : 55
Codec ID/Hint : MP3
Duration : 1 h 22 min
Bit rate mode : Variable
Bit rate : 128 kb/s
Channel(s) : 2 channels
Sampling rate : 48.0 kHz
Frame rate : 41.667 FPS (1152 SPF)
Compression mode : Lossy
Stream size : 74.1 MiB (11%)
Alignment : Aligned on interleaves
Interleave, duration : 24 ms (0.72 video frame)
Interleave, preload duration : 400 ms
Writing library : LAME3.90.
Encoding settings : -m j -V 4 -q 2 -lowpass 17.6 -abr 128

Learning Guitar for Dummies

Download link:

Download From Rapidgator.net
https://rapidgator.net/file/442839f0273c72b81b492abd00e00fda/jp426.Learning.Guitar.for.Dummies.part1.rar.html
https://rapidgator.net/file/0a4fea3d29b8012090a8337bfdc4020c/jp426.Learning.Guitar.for.Dummies.part2.rar.html
https://rapidgator.net/file/2f27536293b6a499e6036a7c5741e263/jp426.Learning.Guitar.for.Dummies.part3.rar.html
https://rapidgator.net/file/c51ecf8e22aaafff0feaaa562a6e54e1/jp426.Learning.Guitar.for.Dummies.part4.rar.html
https://rapidgator.net/file/79d94a8468cddcceb2f5877bc265f163/jp426.Learning.Guitar.for.Dummies.part5.rar.html
https://rapidgator.net/file/3c76d12ed916d0a61e694e76ad9f262b/jp426.Learning.Guitar.for.Dummies.part6.rar.html
https://rapidgator.net/file/078d56062dbceae668df1fe17ecc4d1b/jp426.Learning.Guitar.for.Dummies.part7.rar.html

Download From Uploadgig.com
https://uploadgig.com/file/download/C39cFfe8c87dcBCf/jp426.Learning.Guitar.for.Dummies.part1.rar
https://uploadgig.com/file/download/4c1a11d788Ad5223/jp426.Learning.Guitar.for.Dummies.part2.rar
https://uploadgig.com/file/download/a802fD9c8267cD32/jp426.Learning.Guitar.for.Dummies.part3.rar
https://uploadgig.com/file/download/b96C33D9f4EaC520/jp426.Learning.Guitar.for.Dummies.part4.rar
https://uploadgig.com/file/download/89bcB810D2a91001/jp426.Learning.Guitar.for.Dummies.part5.rar
https://uploadgig.com/file/download/e07d64ca21243FfB/jp426.Learning.Guitar.for.Dummies.part6.rar
https://uploadgig.com/file/download/58D8312842e00d1f/jp426.Learning.Guitar.for.Dummies.part7.rar

Download From Nitroflare.com
http://nitroflare.com/view/D47C8529AB1B61B/jp426.Learning.Guitar.for.Dummies.part1.rar
http://nitroflare.com/view/798888BA6740FF4/jp426.Learning.Guitar.for.Dummies.part2.rar
http://nitroflare.com/view/BDB181F80ACBA70/jp426.Learning.Guitar.for.Dummies.part3.rar
http://nitroflare.com/view/39EEFA74AAE7967/jp426.Learning.Guitar.for.Dummies.part4.rar
http://nitroflare.com/view/E4843EBAC84C95D/jp426.Learning.Guitar.for.Dummies.part5.rar
http://nitroflare.com/view/D44AAD73D59F7DC/jp426.Learning.Guitar.for.Dummies.part6.rar
http://nitroflare.com/view/D69BF02E0EB19C3/jp426.Learning.Guitar.for.Dummies.part7.rar

Links are Interchangeable - Single Extraction - Premium Download To Resumable:
Dear visitor, you are browsing our website as Guest.
We strongly recommend you to register and login to view hidden contents.

Comments:

Add Comment